1440: COVID Medley

Adam Curry & John C. Dvorak

4h 0m
April 7th, 2022
Share at 0:00

Cover Artist:

Chapters

Hide suggested chapters
0:00
Start of Show
Woodstock
2:48
Suggested chapter: Mixes kick off
This is a suggested chapter
Guest producer
2
/ 0
3:18
Suggested chapter: Apocalypse Doom Clock
This is a suggested chapter
Guest producer
3
/ 0
4:03
Suggested chapter: Don't Trust China
This is a suggested chapter
Guest producer
3
/ 0
4:41
Suggested chapter: Got the Wuhan Flu
This is a suggested chapter
Guest producer
3
/ 0
5:14
Suggested chapter: Wuhan Flu
This is a suggested chapter
Guest producer
2
/ 0
6:16
Suggested chapter: I'm In Quarantine
This is a suggested chapter
Guest producer
1
/ 0
8:14
Suggested chapter: Goat Me
This is a suggested chapter
Guest producer
1
/ 0
11:53
Suggested chapter: Sadly we're reacting in all the wrong ways
This is a suggested chapter
Guest producer
1
/ 0
13:19
Suggested chapter: Adams family it's called covid 19
This is a suggested chapter
Guest producer
1
/ 0
13:53
Suggested chapter: corona wuhana
This is a suggested chapter
Guest producer
1
/ 0
17:18
Suggested chapter: Covid Vacation
This is a suggested chapter
Guest producer
1
/ 0
17:59
Suggested chapter: covid ne ne ne ne ne19
This is a suggested chapter
Guest producer
0
/ 0
18:54
Suggested chapter: kung flu fighting
This is a suggested chapter
Guest producer
0
/ 0
20:30
Suggested chapter: come on covid 19
This is a suggested chapter
Guest producer
1
/ 0
20:50
Suggested chapter: Toilet Paper Road
This is a suggested chapter
Guest producer
1
/ 0
23:25
Suggested chapter: I hate chinese food
This is a suggested chapter
Guest producer
0
/ 0
27:03
Suggested chapter: 1 in every 4 species is a bat
This is a suggested chapter
Guest producer
0
/ 0
29:02
Suggested chapter: just the two of us if we wanna go outside
This is a suggested chapter
Guest producer
0
/ 0
30:10
Suggested chapter: stuck inside the house with you
This is a suggested chapter
Guest producer
0
/ 0
30:41
Suggested chapter: it comes from china
This is a suggested chapter
Guest producer
0
/ 0
30:42
Suggested chapter: it comes from china
This is a suggested chapter
Guest producer
0
/ 0
32:15
Suggested chapter: wait till the virus of summer has gone
This is a suggested chapter
Guest producer
0
/ 0
33:28
Suggested chapter: okaaay. we just don't know.
This is a suggested chapter
Guest producer
0
/ 0
36:40
Suggested chapter: fight the chinese virus
This is a suggested chapter
Guest producer
0
/ 0
37:12
Suggested chapter: sunglasses at night
This is a suggested chapter
Guest producer
0
/ 0
37:53
Suggested chapter: the data is junk. the numbers are what count.
This is a suggested chapter
Guest producer
0
/ 0
39:51
Suggested chapter: wash your hands more often than you've ever dreamed possible
This is a suggested chapter
Guest producer
0
/ 0
41:28
Suggested chapter: do we have enough tests
This is a suggested chapter
Guest producer
0
/ 0
42:25
Suggested chapter: do it for your big mama
This is a suggested chapter
Guest producer
0
/ 0
44:00
Suggested chapter: Hey covid 19
This is a suggested chapter
Guest producer
0
/ 0
48:34
Suggested chapter: these tests are not 100%
This is a suggested chapter
Guest producer
0
/ 0
49:55
Suggested chapter: I am waiting for the day that I may go out of my house
This is a suggested chapter
Guest producer
0
/ 0
51:21
Suggested chapter: Lockdown 2020
This is a suggested chapter
Guest producer
0
/ 0
52:35
Suggested chapter: sun is out. gonna do this
This is a suggested chapter
Guest producer
1
/ 0
53:47
Suggested chapter: I ain't gonna work on faucis farm no more
This is a suggested chapter
Guest producer
1
/ 0
55:14
Suggested chapter: put your mask on, its less dangerous
This is a suggested chapter
Guest producer
1
/ 0
56:29
Suggested chapter: speech clips
This is a suggested chapter
Guest producer
1
/ 0
1:09:55
Suggested chapter: Stone Temple Bidens
This is a suggested chapter
Guest producer
2
/ 0
1:12:14
Suggested chapter: Boris deceptively nasty disease
This is a suggested chapter
Guest producer
1
/ 0
1:13:42
Suggested chapter: the worst is yet to come
This is a suggested chapter
Guest producer
0
/ 0
1:16:05
Suggested chapter: who has the rona in your neighbourhood
This is a suggested chapter
Guest producer
0
/ 0
1:17:37
Suggested chapter: Wednesday I met a woman with covid
This is a suggested chapter
Guest producer
0
/ 0
1:20:30
Suggested chapter: will you let your kids go back to school
This is a suggested chapter
Guest producer
0
/ 0
1:22:02
Suggested chapter: believing the lies
This is a suggested chapter
Guest producer
0
/ 0
2:01:45
Suggested chapter: Glad that's finally over
This is a suggested chapter
Guest producer
1
/ 0
2:04:00
Suggested chapter: Oh wait it's not over
This is a suggested chapter
Guest producer
1
/ 0
2:08:24
Suggested chapter: Circle back
This is a suggested chapter
Guest producer
0
/ 0
2:08:24
Suggested chapter: Circle Back
This is a suggested chapter
Guest producer
0
/ 0
2:10:43
Suggested chapter: DONAAATE!!
This is a suggested chapter
Guest producer
1
/ 0
2:17:29
Suggested chapter: Bull Crap / Primus John the fisherman
This is a suggested chapter
Guest producer
0
/ 0
2:32:34
Suggested chapter: CDC - AC/DC
This is a suggested chapter
Guest producer
1
/ 0
2:34:43
Suggested chapter: C-O-V-I-D-1-9
This is a suggested chapter
Guest producer
1
/ 0
2:37:58
Suggested chapter: Don't You (Reject The Vaccine)
This is a suggested chapter
Guest producer
4
/ 0
2:42:01
Suggested chapter: Stay safe!
This is a suggested chapter
Guest producer
0
/ 0
3:09:48
Suggested chapter: You’re All NPC
This is a suggested chapter
Guest producer
0
/ 0
3:17:44
Suggested chapter: Take This Jab & Shove It
This is a suggested chapter
Guest producer
1
/ 0
3:26:10
Suggested chapter: Fauci baby - Millenial Mel
This is a suggested chapter
Guest producer
2
/ 0
3:28:03
Suggested chapter: New Jack Hustler: Scott Gotlieb
This is a suggested chapter
LissaBiFuriouso
0
/ 0
Suggest a new chapter
Detailed Track Log with TimeCodes
TRACK 01 AUDIO
TITLE "INTRO"
PERFORMER "Adam Curry & John C Dvorak"
INDEX 01 00:00:00
TRACK 02 AUDIO
TITLE "Your worlds on fire"
PERFORMER "@dhrac presents Adam Curry v Pantera - EOS"
INDEX 01 02:47:61
TRACK 03 AUDIO
TITLE "Tick Tock Doomsday Clock EOS Lee O LaPuke"
PERFORMER ""
INDEX 01 03:17:51
TRACK 04 AUDIO
TITLE "ITM at The Big Bang"
PERFORMER ""
INDEX 01 04:00:61
TRACK 05 AUDIO
TITLE "Johnny Benson EOS Wuhan Woo Ha"
PERFORMER ""
INDEX 01 04:02:74
TRACK 06 AUDIO
TITLE "Old Time Wuhan Flu EOS Dustin Jones"
PERFORMER ""
INDEX 01 04:34:51
TRACK 07 AUDIO
TITLE "Phantomville"
PERFORMER "The Flu Wuhan Wuhaan - EOS"
INDEX 01 05:11:58
TRACK 08 AUDIO
TITLE "I'm In Quarantine EOS Phantomville"
PERFORMER ""
INDEX 01 06:07:06
TRACK 09 AUDIO
TITLE "Prof JJ from Shanghai"
PERFORMER "Corona Virus World -EOS"
INDEX 01 08:13:45
TRACK 10 AUDIO
TITLE "Goat Me EOS Conan Salada"
PERFORMER ""
INDEX 01 08:56:05
TRACK 11 AUDIO
TITLE "ruhan fru (short jingle version) EOS Sir Seat Sitter"
PERFORMER ""
INDEX 01 09:25:62
TRACK 12 AUDIO
TITLE "Coronavirus Carnival EOS Jesse Coy Nelson"
PERFORMER ""
INDEX 01 09:48:15
TRACK 13 AUDIO
TITLE "EOSM AC on JRE (Pandemic Mix) EOS Fletcher"
PERFORMER ""
INDEX 01 11:52:20
TRACK 14 AUDIO
TITLE "AddamsFamily-CoVID19 EOS Kris M"
PERFORMER ""
INDEX 01 13:17:67
TRACK 15 AUDIO
TITLE "Corona Song v2 EOS Thor"
PERFORMER ""
INDEX 01 13:51:29
TRACK 16 AUDIO
TITLE "Shelley's Daughter -EOS- COVID Staycation"
PERFORMER ""
INDEX 01 17:16:14
TRACK 17 AUDIO
TITLE "Covid 19 -Nineteen EOS Atomic Glue"
PERFORMER ""
INDEX 01 17:58:14
TRACK 18 AUDIO
TITLE "Kung Flu Fighting EOS Lee O LaPuke"
PERFORMER ""
INDEX 01 18:52:34
TRACK 19 AUDIO
TITLE "NA-1226-2020-03-19"
PERFORMER "Adam Curry & John C Dvorak"
INDEX 01 20:28:15
TRACK 20 AUDIO
TITLE "Toilet Paper Road EOS Sir Seatsitter"
PERFORMER ""
INDEX 01 20:48:59
TRACK 21 AUDIO
TITLE "I Hate Chinese EOS Chris Wilson"
PERFORMER "NA Jingles"
INDEX 01 23:23:59
TRACK 22 AUDIO
TITLE "What We're Doing in New York"
PERFORMER "Tom Starkweather"
INDEX 01 25:28:51
TRACK 23 AUDIO
TITLE "Kung Flu EOS Danny Loos"
PERFORMER ""
INDEX 01 27:01:29
TRACK 24 AUDIO
TITLE "The More You Know ITM"
PERFORMER ""
INDEX 01 29:00:70
TRACK 25 AUDIO
TITLE "Two Of Us Slaves EOS Chris Wilson"
PERFORMER "NA Jingles"
INDEX 01 29:04:30
TRACK 26 AUDIO
TITLE "Stuck Inside The House With You EOS Lee O LaPuke"
PERFORMER ""
INDEX 01 30:02:63
TRACK 27 AUDIO
TITLE "Hell_March_Corona EOS Corey L"
PERFORMER ""
INDEX 01 30:39:48
TRACK 28 AUDIO
TITLE "The Virus of Summer EOS Chri sWilson"
PERFORMER "NA Jingles"
INDEX 01 32:14:37
TRACK 29 AUDIO
TITLE "NoAgenda1 EOS Rolando Gonzalez"
PERFORMER ""
INDEX 01 33:23:56
TRACK 30 AUDIO
TITLE "Tom Starkweather"
PERFORMER "Joe's Jazz Club - EOS"
INDEX 01 35:29:21
TRACK 31 AUDIO
TITLE "Fight the Chinese Virus v2 EOS Dion Ahwei"
PERFORMER ""
INDEX 01 36:38:02
TRACK 32 AUDIO
TITLE "Face Mask When Outside EOS Lee O LaPuke"
PERFORMER ""
INDEX 01 37:08:72
TRACK 33 AUDIO
TITLE "NoAgenda4 EOS Rolando Gonzalez"
PERFORMER ""
INDEX 01 37:50:52
TRACK 34 AUDIO
TITLE "Wash Your Hands (Big Mama Mix) EOS Fletcher"
PERFORMER ""
INDEX 01 39:47:37
TRACK 35 AUDIO
TITLE "Tom Starkweather"
PERFORMER "Yes We Do - EOS"
INDEX 01 41:24:13
TRACK 36 AUDIO
TITLE "NoAgenda5 EOS Roland Gonzalez"
PERFORMER ""
INDEX 01 42:22:74
TRACK 37 AUDIO
TITLE "COVID 19 Steely Dan Parody EOS Menno Demento"
PERFORMER ""
INDEX 01 43:55:49
TRACK 38 AUDIO
TITLE "covidbullcrap EOS Matthew Hertert"
PERFORMER ""
INDEX 01 48:30:69
TRACK 39 AUDIO
TITLE "EOS Lockdown blues"
PERFORMER "Mac T"
INDEX 01 49:53:69
TRACK 40 AUDIO
TITLE "Sir Dave in Dimension B EOS LOCKDOWN2020"
PERFORMER ""
INDEX 01 51:18:24
TRACK 41 AUDIO
TITLE "Close It Up"
PERFORMER "Tom Starkweather - EOS"
INDEX 01 52:29:67
TRACK 42 AUDIO
TITLE "JAson Lewis EOS Fauci's Farm"
PERFORMER ""
INDEX 01 53:45:20
TRACK 43 AUDIO
TITLE "Smells Like Coronavirus EOS Jesse Coy Nelson"
PERFORMER ""
INDEX 01 55:11:03
TRACK 44 AUDIO
TITLE "Tom Starkweather"
PERFORMER "Covid Contradictions - EOS"
INDEX 01 56:25:14
TRACK 45 AUDIO
TITLE "NoAgenda9 EOS Roland Gonzales"
PERFORMER ""
INDEX 01 58:15:08
TRACK 46 AUDIO
TITLE "COVID Quarantine Blues EOS Sir Chris Wilson and Gang"
PERFORMER ""
INDEX 01 59:48:23
TRACK 47 AUDIO
TITLE "Struggling by a Thread (Commencement Mix) EOS Fletcher"
PERFORMER ""
INDEX 01 61:09:56
TRACK 48 AUDIO
TITLE "Right into the Vein"
PERFORMER "Gx2 - EOS"
INDEX 01 62:37:01
TRACK 49 AUDIO
TITLE "The Slogans, the Clapping, and The Symbols EOS Noah"
PERFORMER ""
INDEX 01 63:38:46
TRACK 50 AUDIO
TITLE "Tom Starkweather"
PERFORMER "WHOCOVID - EOS"
INDEX 01 65:06:15
TRACK 51 AUDIO
TITLE "NoAgenda13 EOS ROlando Gonzales"
PERFORMER ""
INDEX 01 66:11:68
TRACK 52 AUDIO
TITLE "Tom Starkweather"
PERFORMER "maskONmaskOFF - EOS"
INDEX 01 67:36:72
TRACK 53 AUDIO
TITLE "VAXOLINE EOS DfDmBlindKnight"
PERFORMER ""
INDEX 01 69:25:07
TRACK 54 AUDIO
TITLE "Covid Insanity EOS Jared Mata"
PERFORMER ""
INDEX 01 72:11:37
TRACK 55 AUDIO
TITLE "7.4.20"
PERFORMER "Worst is Yet to Come - Tedros Theme - EOS Gus Augustine"
INDEX 01 73:37:51
TRACK 56 AUDIO
TITLE "Jones 2020 EOS Fauci neighborhood"
PERFORMER ""
INDEX 01 76:00:31
TRACK 57 AUDIO
TITLE "Stay (Until a Vaccine) full length EOS Jason LEwis"
PERFORMER ""
INDEX 01 77:33:10
TRACK 58 AUDIO
TITLE "NoAgenda16 EOS Rolando Gonzales"
PERFORMER ""
INDEX 01 80:28:19
TRACK 59 AUDIO
TITLE "Jones 2020 Believing the Lies EOS Prof JJ"
PERFORMER ""
INDEX 01 81:59:12
TRACK 60 AUDIO
TITLE "roelf-prod- EOS NA-16-ARMZAH"
PERFORMER ""
INDEX 01 83:41:12
TRACK 61 AUDIO
TITLE "Tom Starkweather"
PERFORMER "Cuomo Culture - EOS"
INDEX 01 84:53:55
TRACK 62 AUDIO
TITLE "Climate Believer EOS Bill Mountney"
PERFORMER "NA"
INDEX 01 86:48:17
TRACK 63 AUDIO
TITLE "NoAgenda17 EOS Rolando Gonzales"
PERFORMER ""
INDEX 01 87:55:58
TRACK 64 AUDIO
TITLE "ITM ISO dutch girl kid"
PERFORMER ""
INDEX 01 89:32:53
TRACK 65 AUDIO
TITLE "EOSM_SuckThePlasma EOS Sir Dewcifer"
PERFORMER ""
INDEX 01 89:34:01
TRACK 66 AUDIO
TITLE "Miracle Drug (Second Opinion Mix) EOS Carolyn Blaney + Fletcher"
PERFORMER ""
INDEX 01 90:58:34
TRACK 67 AUDIO
TITLE "Joe Biden's Brain EOS (short) Outfileder"
PERFORMER ""
INDEX 01 92:29:39
TRACK 68 AUDIO
TITLE "Doctor Fauci (to the tune of Doctor Robert) EOS Sir Charles"
PERFORMER ""
INDEX 01 92:58:62
TRACK 69 AUDIO
TITLE "Podcaster Down (from NA #1270) EOS Track Rat"
PERFORMER ""
INDEX 01 94:16:59
TRACK 70 AUDIO
TITLE "Back To Your Programming EOS Nostradamust"
PERFORMER ""
INDEX 01 95:01:68
TRACK 71 AUDIO
TITLE "Bogus Test EOS Chris Bargeron"
PERFORMER ""
INDEX 01 96:32:40
TRACK 72 AUDIO
TITLE "NoAgenda EOS REXO KWOZO RAP good"
PERFORMER ""
INDEX 01 97:43:66
TRACK 73 AUDIO
TITLE "NoAgenda19 EOS Rolando Gonzales"
PERFORMER ""
INDEX 01 100:46:58
TRACK 74 AUDIO
TITLE "winter is coming shortened EOS Danny Loos"
PERFORMER ""
INDEX 01 102:27:55
TRACK 75 AUDIO
TITLE "JCD Mask Meditation EOS Chris Bargeron"
PERFORMER ""
INDEX 01 103:57:61
TRACK 76 AUDIO
TITLE "Tom Starkweather"
PERFORMER "Dark Winter - EOS"
INDEX 01 105:53:13
TRACK 77 AUDIO
TITLE "Able Kirby EOS 20201122_COV2_Final"
PERFORMER ""
INDEX 01 106:15:58
TRACK 78 AUDIO
TITLE "REXO SOLO EOS 1300"
PERFORMER ""
INDEX 01 107:21:22
TRACK 79 AUDIO
TITLE "Rolando Gonzalez EOS NoAgenda26"
PERFORMER ""
INDEX 01 109:08:35
TRACK 80 AUDIO
TITLE "Mister Miyagi's Wild Ride EOS Covid Christmas Carol"
PERFORMER ""
INDEX 01 110:48:53
TRACK 81 AUDIO
TITLE "Tom Starkweather"
PERFORMER "Noccine - EOS"
INDEX 01 114:14:17
TRACK 82 AUDIO
TITLE "Sir Seat Sitter EOS Grandma Got Runover"
PERFORMER ""
INDEX 01 115:10:36
TRACK 83 AUDIO
TITLE "Jesse Coy Nelson EOS Dr. Faucci Imagines"
PERFORMER ""
INDEX 01 116:22:48
TRACK 84 AUDIO
TITLE "REXO EOS SWIFT"
PERFORMER ""
INDEX 01 118:06:46
TRACK 85 AUDIO
TITLE "DONATION BREAK"
PERFORMER "Adam Curry & John C Dvorak"
INDEX 01 121:40:61
TRACK 86 AUDIO
TITLE "M-A EOS My Bro Fauci"
PERFORMER ""
INDEX 01 124:00:34
TRACK 87 AUDIO
TITLE "Though Doc EOS End Of Show Mix NA 1-29-21 Thought Doc"
PERFORMER ""
INDEX 01 126:04:60
TRACK 88 AUDIO
TITLE "Secret Agent Paul EOS Circle Back (Bringing Sexy Back)"
PERFORMER ""
INDEX 01 128:21:57
TRACK 89 AUDIO
TITLE "Sir Scove (sco-vee) of the Piedmon EOS Amy Goodman Echo Mix"
PERFORMER ""
INDEX 01 128:54:44
TRACK 90 AUDIO
TITLE "Andre Coleman EOS John-C-Haunting-Dreams-Mix"
PERFORMER ""
INDEX 01 130:41:47
TRACK 91 AUDIO
TITLE "Doug Longenecker EOS Doctored Evidence"
PERFORMER ""
INDEX 01 132:04:33
TRACK 92 AUDIO
TITLE "parody to nadine "
PERFORMER "Doug Longenecker EOS VAXALINE"
INDEX 01 133:06:03
TRACK 93 AUDIO
TITLE "Andre Coleman EOS Dissolving Delusions Vaccine Variants"
PERFORMER ""
INDEX 01 134:20:33
TRACK 94 AUDIO
TITLE "Biden Blankets"
PERFORMER "Tom Starkweather"
INDEX 01 135:43:61
TRACK 95 AUDIO
TITLE "Tommy Barnes EOS Bullcrap Science"
PERFORMER ""
INDEX 01 137:22:54
TRACK 96 AUDIO
TITLE "Tom Starkweather"
PERFORMER "America is back - EOS"
INDEX 01 139:00:56
TRACK 97 AUDIO
TITLE "Json D Lewis EOS Short Skirt Long Jabber"
PERFORMER ""
INDEX 01 140:09:55
TRACK 98 AUDIO
TITLE "Rolando Gonzalez EOS NoAgenda31"
PERFORMER ""
INDEX 01 142:19:25
TRACK 99 AUDIO
TITLE "Variants-EOS-Tom Starkweather"
PERFORMER ""
INDEX 01 143:45:57
TRACK 100 AUDIO
TITLE "Tom Starkweather"
PERFORMER "VV (Vaccinated Verified) - EOS"
INDEX 01 144:20:23
TRACK 101 AUDIO
TITLE "Obi Wan Martini EOS Double Masking Bullcrap"
PERFORMER ""
INDEX 01 145:41:46
TRACK 102 AUDIO
TITLE "EOS"
PERFORMER "VaxMask - Tom Starkweather"
INDEX 01 147:48:45
TRACK 103 AUDIO
TITLE "Tom Starkweather"
PERFORMER "Dollars and Doses - EOS"
INDEX 01 148:34:02
TRACK 104 AUDIO
TITLE "Tom Starkweather"
PERFORMER "Guidance Gulp - EOS"
INDEX 01 149:42:19
TRACK 105 AUDIO
TITLE "Citizens of Gitmo Nation -EOS Remove your masks announcement"
PERFORMER "Secret Agent Paul"
INDEX 01 151:15:29
TRACK 106 AUDIO
TITLE "ACDC Greatest COVID Hits EOS Unknown"
PERFORMER ""
INDEX 01 152:31:04
TRACK 107 AUDIO
TITLE "Neal Jones EOS Mix -The Risk is to the Money (46sec)"
PERFORMER ""
INDEX 01 153:56:25
TRACK 108 AUDIO
TITLE "COV-ID19/Fauci"
PERFORMER ""
INDEX 01 154:38:36
TRACK 109 AUDIO
TITLE "Rolando Gonzales EOS NoAgenda33"
PERFORMER ""
INDEX 01 156:50:49
TRACK 110 AUDIO
TITLE "Bill Mountney EOS Don't You (Reject the Vaccine) [FIXED]"
PERFORMER ""
INDEX 01 157:53:69
TRACK 111 AUDIO
TITLE "Billy Bon3s EOS NA Rammstein Stay Safe_FINAL"
PERFORMER ""
INDEX 01 161:56:49
TRACK 112 AUDIO
TITLE "Steve Atwell EOS Jabbin Bo Jiden"
PERFORMER ""
INDEX 01 163:09:65
TRACK 113 AUDIO
TITLE "Pfizer in My Dreams EOS Duet with Dame g33ksquared by Audioghost"
PERFORMER ""
INDEX 01 165:00:32
TRACK 114 AUDIO
TITLE "Rolando Gonzalez EOS NoAgenda36"
PERFORMER ""
INDEX 01 166:32:33
TRACK 115 AUDIO
TITLE "Tom Starkweather"
PERFORMER "Door to Door - EOS"
INDEX 01 167:38:22
TRACK 116 AUDIO
TITLE "Buddy Holly No Agenda"
PERFORMER "Sir Ned EOS Weezer"
INDEX 01 169:15:72
TRACK 117 AUDIO
TITLE "If You Still Have the Antibodies (1min29sec)"
PERFORMER "Neal Jones EOS"
INDEX 01 170:08:34
TRACK 118 AUDIO
TITLE "Sound Guy Steve EOS Pusher Bo Jiden"
PERFORMER ""
INDEX 01 171:35:15
TRACK 119 AUDIO
TITLE "Tom Starkweather"
PERFORMER "Know Wen - EOS"
INDEX 01 173:46:42
TRACK 120 AUDIO
TITLE "Tom Starkweather"
PERFORMER "Reinstate Panic Mode_v3 - EOS"
INDEX 01 175:18:67
TRACK 121 AUDIO
TITLE "Tom Starkweather"
PERFORMER "Pushers - EOS"
INDEX 01 176:13:74
TRACK 122 AUDIO
TITLE "Sound Guy Steve EOS Covid Delta Cricus"
PERFORMER ""
INDEX 01 177:09:49
TRACK 123 AUDIO
TITLE "Tom Starkweather & Alex"
PERFORMER "Misinformation Breakdown - EOS"
INDEX 01 178:42:35
TRACK 124 AUDIO
TITLE "Rolando Gonzalez EOS NoAgenda38"
PERFORMER ""
INDEX 01 180:08:15
TRACK 125 AUDIO
TITLE "Advance Australia Unfair"
PERFORMER "Sir Chris Wilson EOS"
INDEX 01 181:27:64
TRACK 126 AUDIO
TITLE "Sound Guy Steve EOS Vaxation Propaganation"
PERFORMER ""
INDEX 01 182:18:67
TRACK 127 AUDIO
TITLE "Gucci Dragons EOS Covid America2"
PERFORMER ""
INDEX 01 183:46:47
TRACK 128 AUDIO
TITLE "Tidewater Architect EOS Screw Your Freedom (This is Kalifornia)"
PERFORMER ""
INDEX 01 185:01:42
TRACK 129 AUDIO
TITLE "Rexo EOS NANation"
PERFORMER ""
INDEX 01 187:00:45
TRACK 130 AUDIO
TITLE "Gucci Dragons EOS SIKE! v4 (Cleanish)"
PERFORMER ""
INDEX 01 188:46:15
TRACK 131 AUDIO
TITLE "Jonation33 EOS Just take the vaccine"
PERFORMER ""
INDEX 01 189:40:09
TRACK 132 AUDIO
TITLE "Gucci Drgons EOS Mobile Morgues"
PERFORMER ""
INDEX 01 193:08:02
TRACK 133 AUDIO
TITLE "Prof JJ EOS Jones 2021 Panicky Karen All the Covid People Beatles"
PERFORMER ""
INDEX 01 195:28:49
TRACK 134 AUDIO
TITLE "Gus Augustine EOS Take This Jab and Shove It"
PERFORMER ""
INDEX 01 197:38:74
TRACK 135 AUDIO
TITLE "Mike Molaro EOS Omicron Song"
PERFORMER ""
INDEX 01 200:11:36
TRACK 136 AUDIO
TITLE "Tidewater Architect EOS Omicron Again"
PERFORMER ""
INDEX 01 201:36:67
TRACK 137 AUDIO
TITLE "Sir Nedwood Knight of the Convict Broadcasts EOS Happiness is a warm vax"
PERFORMER ""
INDEX 01 202:46:72
TRACK 138 AUDIO
TITLE "Bill Mounyney EOS Hadajab"
PERFORMER ""
INDEX 01 203:49:18
TRACK 139 AUDIO
TITLE "12_13_21"
PERFORMER "Jab Me Baby -EOS- 'Millennial' Mel Hart"
INDEX 01 206:05:39
TRACK 140 AUDIO
TITLE "Sound Guy Steve EOS New Scott Hustler"
PERFORMER ""
INDEX 01 207:57:58
TRACK 141 AUDIO
TITLE "Sir Dewcifer EOS Myoacrditis Nineteen 80s Remix"
PERFORMER ""
INDEX 01 210:06:56
TRACK 142 AUDIO
TITLE "Sir Alf EOS Get Vaxed"
PERFORMER ""
INDEX 01 211:55:40
TRACK 143 AUDIO
TITLE "Rolando Gonzalez EOS NoAgenda44"
PERFORMER ""
INDEX 01 214:24:24
TRACK 144 AUDIO
TITLE "Guspacho EOS shove_that_passport"
PERFORMER ""
INDEX 01 215:49:52
TRACK 145 AUDIO
TITLE "Tom Starkweather"
PERFORMER "This is not 2020 This is 2022 New York - EOS"
INDEX 01 217:59:52
TRACK 146 AUDIO
TITLE "Tom Starkweather"
PERFORMER "Rand vs Fauci - EOS"
INDEX 01 220:17:40
TRACK 147 AUDIO
TITLE "Rolando Gonzalez EOS NoAgenda45"
PERFORMER ""
INDEX 01 221:53:08
TRACK 148 AUDIO
TITLE "Sir ALF EOS Mass Formation"
PERFORMER ""
INDEX 01 223:29:17
TRACK 149 AUDIO
TITLE "Jesse Coy Nelson EOS Canada- Trucks"
PERFORMER ""
INDEX 01 227:34:36
TRACK 150 AUDIO
TITLE "Hate the unvaccinated"
PERFORMER "Adelaide SA EOS"
INDEX 01 228:53:66
TRACK 151 AUDIO
TITLE "Tom Starkweather"
PERFORMER "Canada Emergency - EOS"
INDEX 01 229:52:04
TRACK 152 AUDIO
TITLE "Bill Mountney EOS Instant Pharma (They All Signed On)"
PERFORMER ""
INDEX 01 231:21:23
TRACK 153 AUDIO
TITLE "Sir Nedwood, Knight of the Convict Broadcasts EOS Addicted To Masks"
PERFORMER ""
INDEX 01 234:21:41
TRACK 154 AUDIO
TITLE "OUTRO"
PERFORMER "Adam Curry & John C Dvorak"
INDEX 01 235:53:37

Art

Image
Load image
Image
Load image
Image
Load image
Loading troll messages...